Bold Relation (Bengali Short Film) – HD Rip [x264 – AAC3(2Ch)] – 302 MB

Bold Relation (Bengali Short Film) – HD Rip
[x264 – AAC3(2Ch)] – 302 MB

Image

Image

Image

Image

General
Format                                   : Matroska
Format version                           : Version 2
File size                                : 302 MiB
Duration                                 : 45 min 11 s

Video
ID                                       : 1
Format                                   : AVC
Format/Info                              : Advanced Video Codec
Format profile                           : [email protected]
Format settings, CABAC                   : Yes
Format settings, RefFrames               : 4 frames
Codec ID                                 : V_MPEG4/ISO/AVC
Duration                                 : 45 min 11 s
Bit rate                                 : 805 kb/s
Width                                    : 720 pixels
Height                                   : 400 pixels
Display aspect ratio                     : 16:9
Frame rate mode                          : Constant
Frame rate                               : 25.000 FPS
Color space                              : YUV
Chroma subsampling                       : 4:2:0
Bit depth                                : 8 bits
Scan type                                : Progressive
Bits/(Pixel*Frame)                       : 0.112
Stream size                              : 260 MiB (86%)

Audio
ID                                       : 2
Format                                   : AAC
Format/Info                              : Advanced Audio Codec
Format profile                           : LC
Codec ID                                 : A_AAC
Duration                                 : 45 min 11 s
Bit rate                                 : 128 kb/s
Channel(s)                               : 2 channels
Channel positions                        : Front: L R
Sampling rate                            : 48.0 kHz
Stream size                              : 41.4 MiB (14%)
Language                                 : Bengali

Image

ImageImageImageImageImageImage

ImageImage

ImageImageImageImageImage

bdupload. Download Link
indishare Download Link
arabloads. Download Link
openload Download Link
9xupload Download Link
hdupload.net Download Link
up-4everDownload Link
uploads.to Download Link

Comments

comments