Home » Adult Movies (18+) » DARK (Bengali Short Film) – HD Rip [x264 – AAC3(2Ch)] – 250 MB

DARK (Bengali Short Film) – HD Rip [x264 – AAC3(2Ch)] – 250 MB

DARK (Bengali Short Film) – HD Rip
[x264 – AAC3(2Ch)] – 250 MB

Image

Image

Image

General
Format                                   : Matroska
Format version                           : Version 2
File size                                : 250 MiB
Duration                                 : 35 min 43 s

Video
ID                                       : 1
Format                                   : AVC
Format/Info                              : Advanced Video Codec
Format profile                           : [email protected]
Format settings, CABAC                   : Yes
Format settings, RefFrames               : 4 frames
Codec ID                                 : V_MPEG4/ISO/AVC
Duration                                 : 35 min 43 s
Bit rate                                 : 850 kb/s
Width                                    : 720 pixels
Height                                   : 352 pixels
Display aspect ratio                     : 2.045
Frame rate mode                          : Constant
Frame rate                               : 25.000 FPS
Color space                              : YUV
Chroma subsampling                       : 4:2:0
Bit depth                                : 8 bits
Scan type                                : Progressive
Bits/(Pixel*Frame)                       : 0.134
Stream size                              : 217 MiB (87%)

Audio
ID                                       : 2
Format                                   : AAC
Format/Info                              : Advanced Audio Codec
Format profile                           : LC
Codec ID                                 : A_AAC
Duration                                 : 35 min 43 s
Bit rate                                 : 128 kb/s
Channel(s)                               : 2 channels
Channel positions                        : Front: L R
Sampling rate                            : 48.0 kHz
Stream size                              : 32.7 MiB (13%)
Language                                 : Bengali

Image

ImageImageImageImageImageImageImageImageImageImageImage

Image

bdupload. Download Link
indishare Download Link
arabloads. Download Link
openload Download Link
9xupload Download Link
hdupload.net Download Link
up-4everDownload Link
uploads.to Download Link

Comments

comments

Request Any Movie Please Comment. we give 5 hours as soon as possible