JoyoHey (2017) – 2CD – HDTV Rip [Mp4 – AAC3(5.1Ch)]

JoyoHey (2017) – 2CD – HDTV Rip
[Mp4 – AAC3(5.1Ch)]

Media Info

General
Format                                   : MPEG-4
Format profile                           : Base Media
Codec ID                                 : isom (isom)
File size                                : 1.40 GiB
Duration                                 : 2 h 40 min

Video
ID                                       : 1
Format                                   : AVC
Format/Info                              : Advanced Video Codec
Format profile                           : [email protected]
Format settings, CABAC                   : Yes
Format settings, RefFrames               : 4 frames
Codec ID                                 : avc1
Codec ID/Info                            : Advanced Video Coding
Duration                                 : 2 h 40 min
Bit rate                                 : 1 124 kb/s
Maximum bit rate                         : 3 976 kb/s
Width                                    : 720 pixels
Height                                   : 400 pixels
Display aspect ratio                     : 16:9
Frame rate mode                          : Constant
Frame rate                               : 25.000 FPS
Color space                              : YUV
Chroma subsampling                       : 4:2:0
Bit depth                                : 8 bits
Scan type                                : Progressive
Bits/(Pixel*Frame)                       : 0.156
Stream size                              : 1.26 GiB (90%)

Audio
ID                                       : 2
Format                                   : AAC
Format/Info                              : Advanced Audio Codec
Format profile                           : HE-AAC / LC
Codec ID                                 : 40
Duration                                 : 2 h 40 min
Bit rate mode                            : Variable
Bit rate                                 : 128 kb/s
Maximum bit rate                         : 137 kb/s
Channel(s)                               : 6 channels
Channel positions                        : Front: L C R, Side: L R, LFE
Sampling rate                            : 48.0 kHz
Stream size                              : 147 MiB (10%)

Screen Shot

bdupload. Download Link
bdupload. Download Link
OR
indishare Download Link
indishare Download Link
OR
openload Download Link
openload Download Link
OR
9xupload Download Link
9xupload Download Link
OR
uploads.to Download Link
uploads.to Download Link

 

Comments

comments