Home » Bollywood Movies » Toilet – Ek Prem Katha (2017) – DvDScr Rip[x264 – AAC3(2Ch)] – 848 MB

Toilet – Ek Prem Katha (2017) – DvDScr Rip[x264 – AAC3(2Ch)] – 848 MB

Toilet – Ek Prem Katha (2017) – DvDScr Rip[x264 – AAC3(2Ch)] – 848 MB

ImageImage

ImageImage

General
Format                                   : Matroska
Format version                           : Version 2
File size                                : 848 MiB
Duration                                 : 2 h 48 min

Video
ID                                       : 1
Format                                   : AVC
Format/Info                              : Advanced Video Codec
Format profile                           : [email protected]
Format settings, CABAC                   : Yes
Format settings, RefFrames               : 4 frames
Codec ID                                 : V_MPEG4/ISO/AVC
Duration                                 : 2 h 48 min
Bit rate                                 : 574 kb/s
Width                                    : 640 pixels
Height                                   : 328 pixels
Display aspect ratio                     : 1.951
Frame rate mode                          : Constant
Frame rate                               : 25.000 FPS
Color space                              : YUV
Chroma subsampling                       : 4:2:0
Bit depth                                : 8 bits
Scan type                                : Progressive
Bits/(Pixel*Frame)                       : 0.109
Stream size                              : 692 MiB (82%)

Audio
ID                                       : 2
Format                                   : AAC
Format/Info                              : Advanced Audio Codec
Format profile                           : LC
Codec ID                                 : A_AAC
Duration                                 : 2 h 48 min
Bit rate                                 : 128 kb/s
Channel(s)                               : 2 channels
Channel positions                        : Front: L R
Sampling rate                            : 48.0 kHz
Stream size                              : 154 MiB (18%)

ImageImageImageImage

Image

bdupload. Download Link
indishare Download Link
arabloads. Download Link
openload Download Link
9xupload Download Link
hdupload.net Download Link
up-4everDownload Link
uploads.to Download Link

Comments

comments

Request Any Movie Please Comment. we give 5 hours as soon as possible